Kpop Flac

The Album Art Downloader is a program designed to make life easier for anyone who wishes to find and update their album art for their music collection. Dua Lipa - Lost In Your Light (feat. Gone are the days when you could just search TorrentKim for any movie or show. 보아 - K-pop Selection Released: 2004 Genre: Pop, Ballad Bitrate: FLAC & MP3 V0 VBR. 21 다음글 [2019. But we're here to help you out! Below is the list of top Korean torrent sites in 2020. 공지사항 필독 - 채팅창 필독 Quality : HIGH - 320크롬브라우져로 접속해야 잘됩니다 MP3:이찬원 - 사랑의 밧줄 앨범소개 및 오늘의 명언^^ 애드블락OFF | AdBlock OFF | 크롬브라우져로 접속. [Snow-Raws] ハイキュー!! 第01話 (BD 1920x1080 HEVC-YUV420P10 FLAC). 20] Apink《Pink Luv (5th Mini Album)》320KMP3[Dance Pop][2014. The reason most audiophiles like FLAC has very little to do with the actual quality of the audio. Welcome to Juno Download, a digital download store that boasts a staggeringly wide selection of songs, instrumentals and tools for DJs, electronic musicians and listeners alike. Jack White 04 Sorry 05 6 In…. Don’t start now 09. com helps you download free FLAC, M4A, Mp3 songs. Changing! (3:42) 05. 13] 전소미 - BIRTHDAY [싱글] [FLAC] - 토렌트 무손실음악 토렌트 1위 토렌트 파일공유 속도최강!. Comments Off on 黃小琥 (Tiger Huang) – 愛情原來沒什麼專輯 (2015) [FLAC 24bit/48kHz] Hi-Res Digital Download 楊千嬅 (Miriam Yeung) – 如果大家都擁有海 (2015) [FLAC 24bit/44,1-48kHz]. Well guys, lets support this work and this site, just give it a 3-minutes to install an app (enter Google-Play-Market and search 4sashi and install it, You’ll possibly found it useful or funny!. 21 다음글 빌보드 차트 탑 100 고음질 (2020. 00 and have a daily income of around $ 50. 22 Genre: Dance. Across the sea is Japan. This website is estimated worth of $ 27,000. 0 % Test CRC 069D5E11 Copy CRC 069D5E11 Track not present in AccurateRip database Copy OK Track 18 Filename D:\Music\BTS - Map of the Soul - 7 (2020) [FLAC]\18 - We are Bulletproof - the. BRIGHT STREAM (劇場版「魔法少女リリカルなのは The MOVIE 2nd A’s」主題歌)04. From dubstep and electro house to hip hop and Bieber-pop, seemingly no musical style can cause Sonny Moore to falter or. [FLAC] K-pop kpop (self. Big collection. Downloads NOW! offers Direct Stream Digital (DSD) , full size WAV and FLAC files with a growing catalog of new music from various independent labels and artists. New japanese, korean, chinese albums FLAC. Do NOT follow this link or you will be banned from the site!. com hosted blogs and archive. THE ORAL CIGARETTES – Before It’s Too Late [FLAC 24bit/48kHz] Posted 2 weeks ago June 4, 2020. flac FLAC file, 118 MB A3 - Take the Power Back. flac 71 MB. Find popular blogs on electronic music, pop music, hip-hop music, indie music, metal music, rock music, house music, techno music, folk music, classical music and much more. com [FLAC] K-Pop kpop Music 7 hours torrentdownloads. Format : MP3 & FLAC Bitrate : 320kbps MP3 & FLAC Lossless Audio. It also supports every audio format including FLAC, ALAC, AAC+, and DSD. On our site you can download lossless music for free and without registration, favorite performers in flac format, for fans to listen to vinyl digitization - Vinyl rip, gourmets of the music world who want to listen to. Popular FLAC music albums free download. 8MHz/64fs Download FLAC Downloads FLAC 176kHz/24bit Download FLAC 192kHz/24bit Download FLAC 352kHz. moov 隨時帶給你高清音樂享受!無論你在路上或安在家中,都能輕易地享受到你最愛的音樂,演唱會。. 0 MiB: 2020-06-19 14:52: 11: 5: 248: Zingi - Tokyo Tribe [1996] 312. flac 19 – Soul Asylum – String of Pearls. Various - Various - Club DJ LP (Vinyl) Series Vol. Metal music blog albums reviews. Музыкальный проект Sbornik-mp3. We use cookies to ensure you get the best experience on our website. ), [Flac] 이수영 7집 - Grace (2006. Kpopsuki-April 24, 2020 0 (여자)아이들 - I Trust Release Date: 2020. Discover music on Discogs, the largest online music database. (KPop | Hip-Hop) [WEB] BTS - Love Yourself 結 \'Answer\' (2CD) - 2018, FLAC (tracks), lossless скачать торрент бесплатно и без регистрации Свернуть директории · Развернуть · Переключить. Best Korean torrent sites that still work in 2020. As a general rule I use FLAC for archiving and mirror that into VORBIS at 256 for listening or portable players. [FLAC] K-pop kpop. Best quality lossless flac music. The band's influences include Django Reinhardt, Vitalic, Lionel Hampton, and Daft Punk. We've been continuously improving our offering and pursued to deliver music in its purest form to the listener. Also, find the top new songs, playlists, and music on our website!. 5 MiB: 2020-06-19 14:32: 3: 2: 97: SILENT SIREN feat. 2 Opening Clubs Something This Christmas - Winter Is Coming (Mini Album) TAEYEON. Heize Profile: Heize Facts Heize (헤이즈) is a South Korean solo singer and rapper under Stone Music Entertainment. Synchrogazer (TVアニメ「戦姫絶唱シンフォギア」OPテーマ)02. Los Angeles, California, United States About Blog Rap-Up is a national hip-hop and R&B magazine. DramaFire is a site you can use to download Korean dramas, Korean variety shows, and more. Download @ ExtMatrix Pass: rula. Fake & True (3:39) 02. Bts Torrent Results: BT: Flaming June 0 hour(s) and 04 minutes - Movie - Flaming June features co-production credits from German DJ and producer Paul van Dyk and was remixed by Chicane. While most people probably won't care, audiophiles should probably not expect 320kbps uncompressed FLAC-quality audio from a YouTube clip, no matter the. 970 fps / 16:9 / High Profile 4. Produce 48 - 내꺼야 (PICK ME) Released: 2018 Genre: Pop Bitrate: FLAC 24bit 48khz & MP3 V0 VBR RAR / 134 MB; RAR / 17 MB Tracklist: 01. See hi-res recording links: * Where to Download Free Hi-Res Audio. Composer: Giuseppe Verdi Title Of Album: Falstaff Year Of Release: 2020 Label: BelAir classiques Genre: Opera Quality: Blu-ray 1080i Video: MPEG-4 AVC Video / 29991 kbps / 1080i / 29. Thinking Part 1 (the first five songs) is available digitally at Apple Music, Amazon, Spotify, and Google Play. 2019/04/04 - 水樹奈々 - THE MUSEUM IIIReleased: 2018Genre: Pop, RockBitrate: FLAC & MP3 320 KBPS Tracklist: 01. net - Free K-POP Mp3 Download, Latest K-POP Songs, Lagu K-POP Terbaru. 이전글 [고음질] 이수영 - 전집 (flac) 20. As a general rule I use FLAC for archiving and mirror that into VORBIS at 256 for listening or portable players. Girls' Generation (Korean: 소녀시대; RR: Sonyeo Sidae), also known as SNSD, is a South Korean girl group formed by SM Entertainment. Best Korean torrent sites that still work in 2020. HDtracks is a high-resolution music platform for music lovers to download their favorite tracks in master studio quality. BIG BANG 5th Mini Album – Alive Release Date: 2012. 8 Votes: 378 Other formats: VOC DXD AC3 MPC MP4 AUD. wsRockfile(New Filehost, No Waiting Time & Resume Supported)UserscloudUploadrocket The post [Album]{MP3+FLAC} 浜崎あゆみ (Ayumi Hamasaki) – LOVE CLASSICS [2015. LATEST ARTICLES (G)I-DLE - I Trust. jp Instagram: @mamamoo. Vitalization (TVアニメ「戦姫. 21 전체 최신직캠 인기직캠 시사교양 드라마 예능오락. wsRockfile(New Filehost, No Waiting Time & Resume Supported)FiledaisUserscloudUploadrocket. Blige, The Game, and Nicole Scherzinger. ), [Flac] 이수영 1집. [HorribleSubs] Plunderer - 24 [360p] 235 MB: 2 hours: 150: 116 [HorribleSubs] Plunderer - 24 [1080p] 1. Xin chào các bạn! trang Lossless Việt Nam là trang chia sẽ âm nhạc miễn phí được chúng tôi sưu tầm, chia sẽ từ bạn bè và nhiều nguồn khác nhau nhầm chia sẽ cho các bạn những CD nhạc chất lượng tốt nhất. My Sweetie 07. Listen to your music, when and where you want. 970 fps / 16:9 / High Profile 4. Get In Touch. With more than 20,000 tracks in its vault, MOOV is the best music streaming service for Hong Kong music lovers. Rockfile Part 1(New Filehost, No Waiting Time & Resume Supported)Rockfile Part 2(New Filehost, No Waiting Time & Resume. WAV files, are digital sound files native to Windows-based computers. INFO _____ UVERworld - 2019-02-27 - Touch off - Hi-Res 24bit 96khz - 2019 _____ File Name : [Single] UVERworld - Touch off [96kHz/24bit][FLAC][2019. Aimi - Up To You [FLAC] 29. Rockfile Part 1(New Filehost, No Waiting Time & Resume Supported)Rockfile Part 2(New Filehost, No Waiting Time & Resume. 골든디스크1위곡모음 [flac] 가요톱10 골든컵 수상 86곡 모음. T II 2020 FLAC (Jamal The Moroccan) » audio music lossless 3 days 363 MB 2 0 [Post-Punk, New Wave] The Boomtown Rats - Citizens Of Boomtown 2020 FLAC (Jamal The Moroccan) » audio music lossless 3 days 300 MB 2 1. flac FLAC file, 118 MB A3 - Take the Power Back. 30 Peak level 99. Hush – Lasse Lindh 05. 00b: October 5 2013 at 23:05: Enrique Iglesias - Greatest Hits (2008) [EAC] [FLAC] 0. ] [FLAC] - written by HULKPOP, published at 12:59 AM, categorized as IU, Single share this article to Facebook Twitter Google+ Linkedin Technorati Digg Previous Newer Post Next Older Post. Distributes Blue Coast Records, San Francisco Symphony, IsoMike and many other high profile independent labels. ) ★★★★★★★ Kpop. 9MB 13 Tempest. 1 comment; share; save; hide. I'm always RESPECT for who's buy ORIGINAL and buy the physical album. K-Pop stars CL and G-Dragon show up on the sputtering "Dirty Vibe," legendary jungle MCs The Ragga Twins light up the album opener "All Is Fair in Love and Bro Step," and Chicago's astral-traveling MC Chance the Rapper drops a verse on the standout track "Coast Is Clear," which references drum 'n' bass with its feather-light beat. [Album] 竹内まりや – VARIETY 30th Anniversary Edition (2014. Thanks ^^ "Listening the new, updates, completes MP3, MV (Music Video) etc" we just share here, so that everyone knows the songs and the latest KPOP MV. WE ARE THE #1 SOURCE FOR FREE MIXTAPE DOWNLOADS, NEW Releases Daily, DISS TRACKS, Promo, Instrumentals, Dirty South, East Coast, West Coast, R&B, Reggae, Reggaeton, Chopped & Screwed & MORE!. I agree with you and found this quite amusing. 1 surround mix and and a 5LP vinyl collection. SO CURIOUS 06. Featured Korea Pop Twice. qq音乐是腾讯公司推出的一款网络音乐服务产品,海量音乐在线试听、新歌热歌在线首发、歌词翻译、手机铃声下载、高品质无损音乐试听、海量无损曲库、正版音乐下载、空间背景音乐设置、mv观看等,是互联网音乐播放和下载的优选。. 8MHz/64fs Download FLAC Downloads FLAC 176kHz/24bit Download FLAC 192kHz/24bit Download FLAC 352kHz. 14 Jun: 629. Find out more. 混ぜるな危険 02. The band's influences include Django Reinhardt, Vitalic, Lionel Hampton, and Daft Punk. It also supports every audio format including FLAC, ALAC, AAC+, and DSD. Popular Posts IZ*ONE - Oneiric. info adalah situs download lagu terlengkap dengan kualitas audio terbaik. Best Sellers. Synchrogazer (TVアニメ「戦姫絶唱シンフォギア」OPテーマ)02. The flag of South Korea, also known as the Taegukgi (also spelled as Taegeukgi, lit. 0 flac album. Composer: Giuseppe Verdi Title Of Album: Falstaff Year Of Release: 2020 Label: BelAir classiques Genre: Opera Quality: Blu-ray 1080i Video: MPEG-4 AVC Video / 29991 kbps / 1080i / 29. Please follow the procedure below. EXO – EXO PLANET #5 -EXplOration- Live Album[FLAC/MP3]. Caravan Palace is a French electronic band based in Paris. [Album] 竹内まりや – VARIETY 30th Anniversary Edition (2014. cue), lossless. 7 Myths about HD Music. 0 flac album. 8MHz/64fs Download DSD Multichannel 2. Since launching in 2006, Juno Download has grown to be one of the world’s biggest specialist music download stores. 00b: October 5 2013 at 23:05: Enya - Only Time Collection. 골든디스크1위곡모음 [flac] 가요톱10 골든컵 수상 86곡 모음. Debuting with a predominantly hip hop sound, their debut was a moderate success, with their first self-titled Korean album selling 48,000 copies. But we’re here to help you out! Below is the list of top Korean torrent sites in 2020. Thinking Part 2 is available digitally at Spotify, Google Play, Apple Music, and Amazon. Synchrogazer (TVアニメ「戦姫絶唱シンフォギア」OPテーマ)02. BLACKPINK Pop K-Pop 2018. Jetzt einfach & sicher beim Marktführer bestellen!. KPOP Star Season4 3; KPOP Star Season5 1; Krystal 6; Kwanghee (ZE:A) 2; Kwon Jeong Yeol 1; Ky Hye Sun 1; Kye Bum Zu 1; KyuHyun 9; Kyungri (9MUSES) 1; Laboum 7; Ladies' Code 7; Lana Del Rey 2; LAY (EXO) 4; LAYSHA 1; LC9 1; Led Apple 8; LEE GIKWANG 1; Lee Ha-Yi 1; Lee Haneul 1; LEE Hi 10; Lee Hong Ki 2; Lee Hyori 7; Lee Hyun 1; Lee Hyun Woo 1. Now I'm wondering how do I legally purchase lossless (FLAC) songs when I'm outside of Korea? All of the websites I have tried (e. Various - Various - Club DJ LP (Vinyl) Series Vol. Aimi - Up To You [FLAC] 29. com helps you download free FLAC, M4A, Mp3 songs. Spotify is a digital music service that gives you access to millions of songs. Watch Queue Queue. Overall, The Pirate Bay is an easy to navigate website that simply gets the job done. Download Favourite K-pop Music Video, kpop official music videos, dance version, japanese version (PV),music show live performance video, concert video, torrent to download. [flac] 가요톱10 골든컵 수상 86곡 모음 용량: 2. ): tricot – 真っ黒 Archive: RAR Release Date: 2020. Kpopsuki-April 24, 2020. Torrent Name: Added: Size: Seeds: Peers: Uploader: Health: Сборник - Громкие новинки Июня (2020) MP3. 5 thoughts on " No, FLAC Does Not "Sound Better" - Here's What It Actually Is And Why It's Important " Brett December 17, 2012 at 8:36 am. Downloads NOW! has created their own platform for delivery. Get in touch via the Contact Us below if you're interested in these apps. 보아 - K-pop Selection Released: 2004 Genre: Pop, Ballad Bitrate: FLAC & MP3 V0 VBR. Discover music on Discogs, the largest online music database. com ArtWork: not included Size. Lyric : Amugeosdo saenggakhaji ma Neon amu maldo kkeonaejido ma Geunyang naege useojwo Nan ajikdo. The official Muse website. Customers and visitors can download classical music in high quality FLAC or MP3 and find out more about classical music. The reason most audiophiles like FLAC has very little to do with the actual quality of the audio. Download Shin Sekaiju no Meikyuu Millennium no Shoujo Original Soundtrack [FLAC]. (KPop, KRock) [CD, WEB] Dreamcatcher (드림캐쳐) - Discography (10 releases) - 2017-2019, FLAC (tracks+. Музыкальный проект Sbornik-mp3. k-Pop Hi-Res Digital Download. , Soribada, Bugs, Melon, etc. Chia Se Nhac Mobile App. 1 kHz (Tracks) + FLAC 16 bit / 44. Founded in 2001, the full-color, glossy publication has featured music's biggest stars including 50 Cent, Beyoncé, T. Menu KPopSource - International K-POP Forum Community. 골든디스크1위곡모음 [flac] 가요톱10 골든컵 수상 86곡 모음. Discover our Sublime+ offer; FLAC 16-Bit / 44. With iOS 13, you can download songs directly from HifiTrack to your iphone / ipad. 8 % Extraction speed 2. flac FLAC file, 90 MB A2 - Killing in the Name. [Mini Album] HyunA - Bubble Pop! [FLAC] - written by HULKPOP, published at 10:59 AM, categorized as HyunA, Mini Album. Flac: Living on My Own, Killer, Sospeso и другие песни. Caravan Palace is a French electronic band based in Paris. INFO _____ UVERworld - 2019-02-27 - Touch off - Hi-Res 24bit 96khz - 2019 _____ File Name : [Single] UVERworld - Touch off [96kHz/24bit][FLAC][2019. ), [Flac] 이수영 1집. com helps you download free FLAC, M4A, Mp3 songs. com provides listeners a top quality resource for DSD, DXD and Analog-to-DSD Music in Stereo & Multichannel channel configurations, directly from record labels and engineers making these recordings. Welcome to FLAC Audio :) Download Free Lossless Audio Codec (FLAC)! Labels. Joy_MinJun -Joy_MinJun - My Love [FLAC]. FLAC Lossless AudioNizfile Part 1Nizfile Part 2. Download OST ANIME, JPOP Single & Album, Music Video, AMV and Live Concert with MP3 320KBps, M4a, FLAC, DVD, and BD. It is a Large collection of dark, doom, gothic, black, death, power, folk genres - Page 1. Free Download Kpop Music with High Quality MP3, iTunes Plus AAC M4A. Title: Chicken Noodle Soup (feat. Bandcamp makes it easy for fans to directly connect with artists and support the ones they love. SWEET SUMMER DAY FLAC 16 bits/44kHz: MEGA MP3: MEGA Password: kpopeach. FLAC-Free Lossless Audio Codec Bugs Brought to you by: flac-maitainer , giles , jcoalson. 07 1 육감적인 아는 누나 -세누나의 화끈한 일상이야기 06. Comments Off on Uru - あなたがいることで [FLAC 24bit/96kHz] Hi-Res Digital Download. ID;Peace B 06. lll Download Storytelling 【 FREE MP3 320kbps & FLAC 】 Download Soundtracks. 12 Genre: Dance Pop. Saying you use FLAC because it “sounds better” is like saying you only drink your wine at 53. 'Good Day' was the singer's first major hit after debuting in 2008. I was just browsing around the web and found this article. 180K 46K AllS has Disbanded SCANDAL Adds Dates in America to World Tour Schedule. FLAC music for free and without tedious registration! Download flac music in lossless quality. 28] appeared first on R3z4prof's Blog. See hi-res recording links: * Where to Download Free Hi-Res Audio. 0 % Test CRC 069D5E11 Copy CRC 069D5E11 Track not present in AccurateRip database Copy OK Track 18 Filename D:\Music\BTS - Map of the Soul - 7 (2020) [FLAC]\18 - We are Bulletproof - the. Thanks ^^ "Listening the new, updates, completes MP3, MV (Music Video) etc" we just share here, so that everyone knows the songs and the latest KPOP MV. 21 전체 최신직캠 인기직캠 시사교양 드라마 예능오락. Bus Stop 05. Archive of quality music without loss, the best flac music of various genres and directions in flac, CDrip, Vinyl Rip, Multi Channel DTS format, as well as a test disc that you can download for free and without registration. Torrent spreads everywhere through internet at a rapid speed. Quality: FLAC 24 bit / 96 kHz (Tracks) Artist: Rie Murakami Title: Sahara Released: 2020 Style: Funk, Disco, Soul, 80’s J-Pop RAR Size: 800 Mb Tracklist & Download Links. Artist have the opportunity to show their creativity to a broader audience, and the public. An auspiciously titled song, 'Good Day' (2010) set a record by topping Billboard's K-pop Hot 100 Chart for five weeks. (KPop | Hip-Hop) [WEB] BTS - Love Yourself 結 \'Answer\' (2CD) - 2018, FLAC (tracks), lossless скачать торрент бесплатно и без регистрации Свернуть директории · Развернуть · Переключить. 2019/04/04 - 水樹奈々 - THE MUSEUM IIIReleased: 2018Genre: Pop, RockBitrate: FLAC & MP3 320 KBPS Tracklist: 01. HD Music Video on K2NBLOG. Onkyo Music's mission has been to provide music in the best quality available to audiophiles and music lovers since its launch in 2015. Welcome to SeekaSong. Kpop 24 Bit Flac Flac || 4863 kbps || 24 bit || 192 kHz Artist : Green Day Album : Warning Released : October 3, 2000 La Narcos Season 1 Bluray 1080p Light Hi-Fi - Narcos is an American crime web television series created and produced by Chris Brancato, Carlo Bernard, and Doug Miro. Top Torrent Sites 2020. 이수영 7집 - Grace (2006. 1 / 48 kHz / 3818 kbps / 24-bit Subtitles: French,English,German,Spanish,Korean,Japanese. P, Taeyang, Daesung, and Seungri, the group officially debuted on August 19, 2006. FIREWORK 4. Get In Touch. YOU & I 09. Download @ ExtMatrix Pass: rula. Get Amazon Music HD free for 30 days. always buy this Original MP3,MV by MelOn, Itunes,and etc. Featured Korea Pop Twice. 2019/04/04 - 水樹奈々 - THE MUSEUM IIIReleased: 2018Genre: Pop, RockBitrate: FLAC & MP3 320 KBPS Tracklist: 01. Only holy 07. 07 5 언니 No Mercy (2019) (1080p BDRip x265 10bit DTS-HD MA 5. Quality: FLAC 24 bit / 96 kHz (Tracks) Artist: Rie Murakami Title: Sahara Released: 2020 Style: Funk, Disco, Soul, 80’s J-Pop RAR Size: 800 Mb Tracklist & Download Links. Discover music on Discogs, the largest online music database. Overall, The Pirate Bay is an easy to navigate website that simply gets the job done. STAFABAND download lagu gratis, download mp3 terbaru 2020, lirik serta stafa band video mp4 asli. Buy and sell music with collectors in the Marketplace. 13] 전소미 - BIRTHDAY [싱글] [FLAC] - 토렌트 무손실음악 토렌트 1위 토렌트 파일공유 속도최강!. Cosmic Cowboy 06. my subreddits. info adalah situs download lagu terlengkap dengan kualitas audio terbaik. Download Miliyah Kato - M BEST -Fan's Selection-01. Category: Hip Hop, Funk / Soul, Pop Style: Contemporary R&B Year: 2016 Notes: Blonde (stylised as blond) is the second studio album by Frank Ocean. Post a comment. Miguel) Paul Damixie - Get Lost( Matt Nash - Know My Love Paramore - Hard Times DNCE ft. A few months ago, I asked where to legally purchase and download lossless (FLAC) songs. Here you can find flac kpop shared files. 00 and have a daily income of around $ 50. Free Download Kpop Music with High Quality MP3, iTunes Plus AAC M4A. Our committed community of users submitted the Beautiful pictures you're currently browsing. 日本 (Japan) Radio Stations on your iPhone, iPad, iPod Touch, Android, Blackberry, and other app-enabled mobile phones. But we're here to help you out! Below is the list of top Korean torrent sites in 2020. 'Good Day' was the singer's first major hit after debuting in 2008. METRO BAROQUE (劇場版「BLOOD-C The Last Dark」主題歌)03. 24] 아이유(iu) - 밤편지 [싱글] [flac] 용량: 25. Customers and visitors can download classical music in high quality FLAC or MP3 and find out more about classical music. 50m 토렌트 다운로드. It is a domain having ne. The official Muse website. 0 flac album. DramaFire is a site you can use to download Korean dramas, Korean variety shows, and more. com is 6 years 2 months old. flac FLAC file, 118 MB A3 - Take the Power Back. 10 Times K-Pop Kneeling Moves Were So Harsh, They Made Some Idols Injured A K-Pop Fan Shared Their “Unpopular Opinion” About Oli London, And It Is A MUST Read IZ*ONE’s Wonyoung Showered Her Dad With Lots Of Love While Talking About The Dish She Made For Him. FLAC 24-Bit up to 192 kHz. I agree with you and found this quite amusing. It is a domain having ne. 07 1 육감적인 아는 누나 -세누나의 화끈한 일상이야기 06. 0 / 48 kHz / 1536 kbps / 16-bit Audio: DTS-HD MA 5. [Moozzi2] 드래곤볼 극장판 [ 1986~1996 ] (BD 1920x1036 x. The post [Single]{FLAC+MP3} 浜崎あゆみ (Ayumi Hamasaki) – Zutto…/Last Minute/Walk [2014. The recording is a binaural recording intended especially for headphone use. 网易云音乐是一款专注于发现与分享的音乐产品,依托专业音乐人、dj、好友推荐及社交功能,为用户打造全新的音乐生活。. - Burrito Deluxe (1970) {2020, Remastered, Hi-Res SACD Rip} SACD Rip | ISO / DSD / 1bit / 2. Quality: FLAC 24 bit / 96 kHz (Tracks) Artist: Rie Murakami Title: Sahara Released: 2020 Style: Funk, Disco, Soul, 80's J-Pop RAR Size: 800 Mb Tracklist & Download Links. Country 7 (Single). We provide fast downloadable and reliable service for you. zip : 645,95 MB…. KPOP Star Season4 3; KPOP Star Season5 1; Krystal 6; Kwanghee (ZE:A) 2; Kwon Jeong Yeol 1; Ky Hye Sun 1; Kye Bum Zu 1; KyuHyun 9; Kyungri (9MUSES) 1; Laboum 7; Ladies' Code 7; Lana Del Rey 2; LAY (EXO) 4; LAYSHA 1; LC9 1; Led Apple 8; LEE GIKWANG 1; Lee Ha-Yi 1; Lee Haneul 1; LEE Hi 10; Lee Hong Ki 2; Lee Hyori 7; Lee Hyun 1; Lee Hyun Woo 1. This is a free web tool that allows you to boost the bass of a song making it more bass heavy. HDtracks is a high-resolution music platform for music lovers to download their favorite tracks in master studio quality. [Snow-Raws] ハイキュー!! 第01話 (BD 1920x1080 HEVC-YUV420P10 FLAC). 0 FLAC format. Originaltickets für Musicals, Konzerte, Theater, Sport und viele weitere Veranstaltungen zu Top-Preisen. [Updated] We want to share with you, our Top 10 Popular Chinese/Mandarin Songs 2020 that you must hear! We have summarized several Chinese music charts, video sharing sites, social media to make this list!. Which is the best music streaming service in 2020? We compare Spotify vs Apple Music against rivals like Deezer, Tidal, Amazon and more to help you decide. 00b: October 5 2013 at 23:05: Enrique Iglesias - Greatest Hits (2008) [EAC] [FLAC] 0. vocalist Flac Hi-Res hip. 8MHz/64fs Download DSD Multichannel 2. Don't start now 09. FLAC-Free Lossless Audio Codec Bugs Brought to you by: flac-maitainer , giles , jcoalson. Her last solo release, 2016’s “Lifted” peaked on the Hot 100. It is a Large collection of dark, doom, gothic, black, death, power, folk genres - Page 1. Online bass booster. mp3 - 320 kbps / FLAC Tracklist: 01 ELO 02 ELEGANTE 03 OPPS 04 DOMANI L'ALTRO 05 ENJOY 06 BANKROLL 07 CALMA 08 ZERO+ZERO 09 WICKR ME 10 223 11 CHANCE 12 GIRO D'ITALIA 13 SNITCH E IMPICCI 14 STUPIDO DRIP 15 NOTTE E GIORNO […]. Stay With Me – Chanyeol, Punch [Instrumental] 03. Caravan Palace is a French electronic band based in Paris. Most of us have changed the way we consume music, swapping physical formats such as CDs for streaming services such as Spotify and Tidal. Highest quality streaming audio with Amazon Music HD. Hi, I am KPOP AREA and I do Speed Up Video and now trying to have Kpop Random Dance Challenge/Play/Game. 1 / 48 kHz / 3818 kbps / 24-bit Subtitles: French,English,German,Spanish,Korean,Japanese. It is a domain having com extension. 0 % Test CRC 069D5E11 Copy CRC 069D5E11 Track not present in AccurateRip database Copy OK Track 18 Filename D:\Music\BTS - Map of the Soul - 7 (2020) [FLAC]\18 - We are Bulletproof - the. Featured Korea Pop Twice. 2 [FLAC] World Masterpiece Theater - Music Collection (1995-2009) 7. 골든디스크1위곡모음 [flac] 가요톱10 골든컵 수상 86곡 모음. Get unlimited access to over 60 million songs in HD and millions of songs in Ultra HD. Thanks ^^ "Listening the new, updates, completes MP3, MV (Music Video) etc" we just share here, so that everyone knows the songs and the latest KPOP MV. Discover music on Discogs, the largest online music database. 11/06/2020 by admin Leave a Comment. INTRO (ALIVE) 02. Featured Korea Pop Twice. Torrent spreads everywhere through internet at a rapid speed. Comments Off on Maliya - ego [Ototoy FLAC 24bit/48kHz] Hi-Res Digital Download. 24] 청하 - Flourishing [EP] [FLAC] 20. mp3 796 K 28/07/2004 11:24:14 audio/mpeg Jewel - Joy To. DL002 - Archive Download Link - Mega Direct Post on 2018/04/17 Available for 1 month (C83)(東方)[SHAT-0001] 埼玉最終兵器&Aether — Frenzy Frenzy (V0) Download (C84)(東方)[SHAT-0003] 埼玉最終兵器&Aether —Eternal eclipse (320K) Download (C93) Jerico's law - Arrange Mutation Download (例大祭10)(東方)[SHAT-0002] 埼玉最終兵器&Aether — Silent Stratosphere (320K) Download. Downloads J-Rock J-Pop Music MP3/AAC/FLAC/ALAC. 7 degrees Fahrenheit because that is the “best temperature. A1 - Bombtrack. Synchrogazer (TVアニメ「戦姫絶唱シンフォギア」OPテーマ)02. ] [FLAC] - written by HULKPOP, published at 12:59 AM, categorized as IU, Single share this article to Facebook Twitter Google+ Linkedin Technorati Digg Previous Newer Post Next Older Post. [Single] 朝霧 彩(CV大野柚布子) – 魔法少女サイト キャラクターソング 「赤イ涙の先」 (2018. Listen to my Heart 04. If you’re looking for a warm and punchy sounding streamer that can also serve as a DAC for your older CD player, this needs to be on your audition. Stronger (3:14) 03. All materials on the site are provided for informational purposes only. FLAC Lossless AudioUploads. Gentle Monkeys – 원숭이 카페 – Single Released: 2020 Genre: K-Pop TRACK LIST: 1. 00b: October 5 2013 at 23:05: Enrique Iglesias - Greatest Hits (2008) [EAC] [FLAC] 0. Bleep sells tracks both in albums and separately. Artist: Stray Kids / 스트레이 키즈 Title: GO生 Genre: K-Pop, Rap / Hip-Hop, Rock, Dance, R&B / Soul Release Date: 2020. Like, Comment, and Subscribe for videos like this. , Soribada, Bugs, Melon, etc. 000 titler til små priser. 04g 토렌트 다운로드. 2 [FLAC] kpopeach June 17, 2020. 5 MiB: 2020-06-19 14:32: 6: 7: 95: SILENT SIREN feat. MAKE ME GO 5. hop Hong Kong idol Idols ISO J-Drama J-Pop J-Rock Japanese K-Drama K-Pop Korea Korean Live Lossless male. Музыкальный проект Sbornik-mp3. Instead of "owning" music – either physical or digital – we're now content to pay a monthly subscription fee to access music in the cloud, allowing us to play any song – without actually buying it. - Burrito Deluxe (1970) {2020, Remastered, Hi-Res SACD Rip} SACD Rip | ISO / DSD / 1bit / 2. 2 (BDRip 1920x1080 x264 FLAC) + 최신 한국음악 [지니] 2020년 06월 21일 실시간 TOP 100 [320Kbps]. Listen to the best kpop music radio 24/7, with the latest songs from your favorite kpop groups. BLACKPINK Pop K-Pop 2018. We and our partners use cookies to personalize your experience, to show you ads based on your interests, and for measurement and analytics purposes. Welcome to FLAC Audio :) Download Free Lossless Audio Codec (FLAC)! Labels. South Korea is roughly the size of England or Portugal and about ⅓ of the size of Germany. Terms apply. Because WAV files are widely supported, almost any program that plays audio files can play a WAV file. Thanks ^^ "Listening the new, updates, completes MP3, MV (Music Video) etc" we just share here, so that everyone knows the songs and the latest KPOP MV. (KPop, KRock) [CD, WEB] Dreamcatcher (드림캐쳐) - Discography (10 releases) - 2017-2019, FLAC (tracks+. Caravan Palace is a French electronic band based in Paris. Track list "Intro: Persona" - 2:54, "Boy With Luv (작은 것들을 위한 시)" (feat. 00 and have a daily income of around $ 50. FLAC 16 bits/44kHz: MEGA MP3: MEGA Password: kpopeach. Comments Off on 黃小琥 (Tiger Huang) – 愛情原來沒什麼專輯 (2015) [FLAC 24bit/48kHz] Hi-Res Digital Download 楊千嬅 (Miriam Yeung) – 如果大家都擁有海 (2015) [FLAC 24bit/44,1-48kHz]. Time to Begin 05. 1 [FLAC] K-pop kpop: 66. hop Hong Kong idol Idols ISO J-Drama J-Pop J-Rock Japanese K-Drama K-Pop Korea Korean Live Lossless male. com [FLAC] K-Pop kpop Music 2 days torrentfunk. The recording is a binaural recording intended especially for headphone use. FIREWORK 4. 21 전체 최신직캠 인기직캠 시사교양 드라마 예능오락. , Soribada, Bugs, Melon, etc. A1 - Bombtrack. South Korea is roughly the size of England or Portugal and about ⅓ of the size of Germany. 35 MB, Waka Flocka Flame - Flockaveli (2010) [FLAC]. Big collection. HD Music Video on K2NBLOG. My Eyes – 10cm 04. Welcome to FLAC Audio :) Download Free Lossless Audio Codec (FLAC)! Labels. 21 다음글 [2019. 18: Apple AAC를 이용한 mp4 인코딩 (5) 2015. FLAC 16 bits/44kHz: MEGA MP3: MEGA Password: kpopeach. I'm always RESPECT for who's buy ORIGINAL and buy the physical album. flac FLAC file, 90 MB A2 - Killing in the Name. Download @ ExtMatrix Pass: rula. 이수영 7집 - Grace (2006. ; 2 For information about the external power supply bundled with the product (when applicable), please refer to the link regarding information on ecodesign requirements for external power supplies in accordance with the COMMISSION REGULATION (EU) 2019/1782 of 1 October 2019 laying down ecodesign requirements for external. Performer: Angela Chang Title: Ang 5. Download K-Pop lossless FLAC APE WAV music. T-ara (티아라) - Funky Town [5th Mini Album] Release Date: 2012. 골든디스크1위곡모음 [flac] 가요톱10 골든컵 수상 86곡 모음. This is similar to how Zip works, except with FLAC you will get much better compression because it is designed specifically for audio, and you can play back compressed FLAC files in your favorite player (or your car or home stereo, see. Kpop flac download. 이전글 [flac] 가요톱10 골든컵 수상 86곡 모음 20. All kinds of genres, old and new from korea!. more deep, more vapor, more nostalgic sounds. Discover music on Discogs, the largest online music database. 2 X Track quality 100. 0 / 48 kHz / 1536 kbps / 16-bit Audio: DTS-HD MA 5. 732 Tracks. 2 [FLAC] kpopeach June 17, 2020. Icecast Directory. Download @ ExtMatrix Pass: rula. Fire it up, and it doesn't disappoint. Japanese; FLAC. 골든디스크1위곡모음 [flac] 가요톱10 골든컵 수상 86곡 모음. Do NOT follow this link or you will be banned from the site!. FLAC format music albums and tracks download free. Stafabander. A few months ago, I asked where to legally purchase and download lossless (FLAC) songs. 35 MB, Waka Flocka Flame - Flockaveli (2010) [FLAC]. Saying you use FLAC because it “sounds better” is like saying you only drink your wine at 53. 8KB Jacket-B. This is a free web tool that allows you to boost the bass of a song making it more bass heavy. Studio (Hi-Res) The best quality in the world. Listen to my Heart 04. Taylor Swift The Man (Live From Paris)Pop_Single_2020[320]Beats⭐. 2 GB: 2 hours: 672: 333 [HorribleSubs] Plunderer - 24 [720p] 554 MB: 2 hours: 527: 295 [Erai-raws] Kami no Tou - 13 END [1080p][Multiple Subtitle]. INTRO (ALIVE) 02. Start shopping right away at the biggest Kpop shop KpopUltra! Buy with free shipping and prices starting at 153 ₺. Started as free music streaming app, Gaana introduced mp3 downloading option later which allows you to download mp3 music for free and brings it in the list of the music downloader apps for Android. Performer: Angela Chang Title: Ang 5. 19/MP3+Flac/RAR). We've been continuously improving our offering and pursued to deliver music in its purest form to the listener. download the best dj mixes from djs all around the world. Electronic / Pop. The top 100 1967 lists the 100 most popular hits in the UK singles music charts in 1967. It has a global traffic rank of #329,183 in the world. NICKI MINAJ - KISSING STRANGERS TCTS feat Sage The Gemini & Kelis v7c. Now I'm wondering how do I legally purchase lossless (FLAC) songs when I'm outside of Korea? All of the websites I have tried (e. Downloads J-Rock J-Pop Music MP3/AAC/FLAC/ALAC. Caravan Palace is a French electronic band based in Paris. It was Date of released digitally on August 20, 2016 with a CDr edition simultaneously issued with Boys Don't Cry (Issue 1 / Album 3), a free 360-page magazine curated by Ocean and Date of released for free for one day only at four "pop-up. It also supports every audio format including FLAC, ALAC, AAC+, and DSD. I'm always RESPECT for who's buy ORIGINAL and buy the physical album. Now, in preparation for the band’s fourteenth studio album and their first album ever produced in collaboration with this leading worldwide label. 1 [FLAC] K-pop kpop: 66. Format : MP3 & FLAC Bitrate : 320kbps MP3 & FLAC Lossless Audio. Download Mikiko Noda - East of the Sun, West of the Moon (1988) 01. Here at Allflac. Qobuz is the only music platform in the world to offer you the possibility to both stream and purchase. Milky way 03. 混ぜるな危険 02. FLAC stands for Free Lossless Audio Codec, an audio format similar to MP3, but lossless, meaning that audio is compressed in FLAC without any loss in quality. Downloads NOW! offers Direct Stream Digital (DSD) , full size WAV and FLAC files with a growing catalog of new music from various independent labels and artists. Stay With Me – Chanyeol, Punch 02. Downloads J-Rock J-Pop Music MP3/AAC/FLAC/ALAC. wav Pre-gap length 0:00:01. YOOK SUNG JAE - Mystic Pop-up Bar OST Part. Torrent Name: Added: Size: Seeds: Peers: Uploader: Health: Сборник - Громкие новинки Июня (2020) MP3. flac 18 - Soul Asylum - I Can See Clearly Now (Live). Miguel) Paul Damixie - Get Lost( Matt Nash - Know My Love Paramore - Hard Times DNCE ft. Kpopgalaxy offering you Kpop Flac and MP3. 0 % Test CRC 069D5E11 Copy CRC 069D5E11 Track not present in AccurateRip database Copy OK Track 18 Filename D:\Music\BTS - Map of the Soul - 7 (2020) [FLAC]\18 - We are Bulletproof - the. Started as free music streaming app, Gaana introduced mp3 downloading option later which allows you to download mp3 music for free and brings it in the list of the music downloader apps for Android. Download lossless music G-Dragon in popular formats: FLAC, MP3, M4A. 2 - The '70s, '80s, '90s Genre: R&B Release Date: 2018-08-10 www publisher: hd24bit. 背中に書いたメッセージ 4. Bus Stop 05. 000 Artists and 150. Dust off that old Faye Wong and Jay Chou at Cashbox Karaoke. With iOS 13, you can download songs directly from HifiTrack to your iphone / ipad. FLAC Lossless AudioNizfile Part 1Nizfile Part 2. Music lossless for lovers of good sound Pop Dance Kpop. It's not choosy when it comes to playing file types either. 7 Myths about HD Music. Super Friend 02. EXO – EXO PLANET #5 -EXplOration- Live Album[FLAC/MP3]. MQA and FLAC are lossless encodings derived directly from our original production masters. Kpop flac download. com is a royalty free sounds library, free of charge and public domain sounds. cue), lossless. Download K-Pop lossless FLAC APE WAV music. lll Download HOSPITAL PLAYLIST (Original Television Soundtrack), Pt. 12 Genre: Dance Pop. 03 Genre: Pop Dance Bit rate: VBR/ 320kbps Track list: 01 Lovey Dovey 02 우리 사랑했잖아 (We Were In Love) 03 Lovey Dovey (Club Remix Version) 04 Cry Cry 05 Goodbye, OK 06 O My God 07 I'm so bad 08 Cry Cry (Ballad version)…. The country has low, rugged hills, swamps and woodlands, but it is very crowded and many natural areas have been destroyed. Download club dance music MP3 and FLAC, Dance compilation, Daily updates club music, Best mixes and sets, Radio show. Flac: Living on My Own, Killer, Sospeso и другие песни. Come to Me 14. 1 comment; share; save; hide. Posts about FLAC written by Shibasaki. BIG BANG 5th Mini Album – Alive Release Date: 2012. Try Flow, only on Deezer. WE ARE THE #1 SOURCE FOR FREE MIXTAPE DOWNLOADS, NEW Releases Daily, DISS TRACKS, Promo, Instrumentals, Dirty South, East Coast, West Coast, R&B, Reggae, Reggaeton, Chopped & Screwed & MORE!. Fire it up, and it doesn't disappoint. Milky way 03. However, it's worth to wait for 5 seconds of getting off the ads if you want to get Kpop songs in Flac format. 06 Genre: Dance TRACK LIST: 01. Jack White 04 Sorry 05 6 In…. Online bass booster. If you continue to browse, we will assume you are happy with it. (Country-Roc k, Pop-Rock) [CD] The Everly Brothers - Down In The Bottom The Country Rock Sessions 1966 - 1968 - 2020, FLAC (tracks), lossless. 13] 전소미 - BIRTHDAY [싱글] [FLAC] - 토렌트 무손실음악 토렌트 1위 토렌트 파일공유 속도최강!. South Korea is slightly smaller than the US state of Pennsylvania or seven times smaller than Texas! South Korea Geography. Comments Off on Comeback Battle: Queendom - Queendom (2019) [FLAC 24bit/48kHz] Hi-Res Digital Download T-ARA - AGAIN 1977 (Repackage Album) [FLAC 24bit/96kHz]. Format : MP3 & FLAC Bitrate : 320kbps MP3 & FLAC Lossless Audio. DON'T CALL ME AGAIN 7. We and our partners use cookies to personalize your experience, to show you ads based on your interests, and for measurement and analytics purposes. 2MHz/256fs Download DSD (Single Rate) 2. It was released on March 19, 2015 with "Pepe" serving as the album's title track. Purpose of this channel is to have fun. 1 surround mix and and a 5LP vinyl collection. 1 [FLAC] K-pop kpop: 66. OPEN YOUR EYES Download/ダウンロード/下载 (Pass=jpfiles) Related posts:[Single] HimeHina – うたかたよいかないで [MP3+Hi-Res FLAC][Album] 宇多田ヒカル – BOHEMIAN SUMMER 2000 [MP3](2000)[Single] 東城陽奏 - ONE [MP3][Album. The price for a FLAC track can go up to $1. Discover more than 56 million tracks, create your own playlists, and share your favourite tracks with your friends. Kpop 24 Bit Flac Flac || 4863 kbps || 24 bit || 192 kHz Artist : Green Day Album : Warning Released : October 3, 2000 La Narcos Season 1 Bluray 1080p Light Hi-Fi - Narcos is an American crime web television series created and produced by Chris Brancato, Carlo Bernard, and Doug Miro. Where are you 13. 732 Tracks. Fire it up, and it doesn't disappoint. Filename D:\Music\BTS - Map of the Soul - 7 (2020) [FLAC]\17 - Respect. 2 (BDRip 1920x1080 x264 FLAC) + 최신 한국음악 [지니] 2020년 06월 21일 실시간 TOP 100 [320Kbps]. com - Retro music quizzes and playlists from the '80s, '90s and '00s. am, philanthropy is a top priority in everything that he does. The reason most audiophiles like FLAC has very little to do with the actual quality of the audio. Overall, The Pirate Bay is an easy to navigate website that simply gets the job done. 28] appeared first on R3z4prof's Blog. 8 MiB: 2020-06-19 12:23: 14: 0: 289 [Nemuri] THE [email protected] SHINY COLORS アイドルマスター シャイニーカラーズ (2018-2020) Discography / Collection [18. org item tags). 21 다음글 빌보드 차트 탑 100 고음질 (2020. always buy this Original MP3,MV by MelOn, Itunes,and etc. Come to Me 14. With 160GB of space, iPod classic means you can always have your entire music and movie library with you. DramaFire is a site you can use to download Korean dramas, Korean variety shows, and more. flac 18 - Soul Asylum - I Can See Clearly Now (Live). Buy and sell music with collectors in the Marketplace. Stafabander. vocalist Mandarin pop Rock Single Thailand. The CXN V2 has three digital inputs, two digital outputs, analog (single-ended and balanced) outputs and one Ethernet input. We and our partners use cookies to personalize your experience, to show you ads based on your interests, and for measurement and analytics purposes. The price for a FLAC track can go up to $1. However, it's worth to wait for 5 seconds of getting off the ads if you want to get Kpop songs in Flac format. Discover the best audio quality. 35 MB, Waka Flocka Flame - Flockaveli (2010) [FLAC]. wsRockfile(New Filehost, No Waiting Time & Resume Supported)FiledaisUserscloudUploadrocket. PINK BLUSHER 11. All KPOP MERCH loved by Armys and kpop fans are on this page. Find out more. 04g 토렌트 다운로드. I’m not sure what you mean by hi-res (like exactly what caliber of hi-res you mean) but iTunes has very high quality music and has almost any K-Pop album unless it’s a more obscure artist. 07 1 육감적인 아는 누나 -세누나의 화끈한 일상이야기 06. Consisting of members G-Dragon, T. APRIL (에이프릴) – 에이프릴(APRIL) 7th Mini Album ‘Da Capo’ Released: 2020. On our site you can download lossless music for free and without registration, favorite performers in flac format, for fans to listen to vinyl digitization - Vinyl rip, gourmets of the music world who want to listen to. Their debut. 0 % Test CRC 069D5E11 Copy CRC 069D5E11 Track not present in AccurateRip database Copy OK Track 18 Filename D:\Music\BTS - Map of the Soul - 7 (2020) [FLAC]\18 - We are Bulletproof - the. hop Hong Kong idol Idols ISO J-Drama J-Pop J-Rock Japanese K-Drama K-Pop Korea Korean Live Lossless male. 网易云音乐是一款专注于发现与分享的音乐产品,依托专业音乐人、dj、好友推荐及社交功能,为用户打造全新的音乐生活。. Artist & Title: tricot – Makkuro Artist & Title (Org. THE ORAL CIGARETTES - Before It's Too Late [FLAC 24bit/48kHz] Posted 2 weeks ago June 4, 2020. 1 / 48 kHz / 3818 kbps / 24-bit Subtitles: French,English,German,Spanish,Korean,Japanese. Synchrogazer (TVアニメ「戦姫絶唱シンフォギア」OPテーマ)02. moov 隨時帶給你高清音樂享受!無論你在路上或安在家中,都能輕易地享受到你最愛的音樂,演唱會。. 푸바를 이용한 쉽고 빠른 FLAC to AAC 파일 변환 (5) 2017. Gentle Monkeys – 원숭이 카페 – Single Released: 2020 Genre: K-Pop TRACK LIST: 1. 24 bit / 96 kHz Hi-Resolution Free FLAC. vocalist Flac Hi-Res hip. TWICE – YES or YES [FLAC 24bit/48kHz] Posted 59 mins ago June 22, 2020. 골든디스크1위곡모음 [flac] 가요톱10 골든컵 수상 86곡 모음. 0 GiB: 2020-06-19 20:48: 8: 6: 60: Zingi - Tokyo Tribe [1996] 312. Post a comment. Container: flac (tracks) Quality: Hi-Fi, lossless audio Sample Rate: 44100 kHz / 16 bit, Stereo Source: Digital download Album Artist/Name: The Temptations / 20th Century Masters: The Millennium Collection: Best Of The Temptations, Vol. info adalah situs download lagu terlengkap dengan kualitas audio terbaik. 20] Apink《Pink Luv (5th Mini Album)》320KMP3[Dance Pop][2014. - WE ARE A ROCK FESTIVAL [FLAC 24bit/48kHz] Hi-Res Digital Download. ID;Peace B 06. Year: 2019 Audio Source: 24 Bit, WEB Audio Codec: FLAC Rip Type: Tracks Bitrate: Lossless Audi… Coldplay - Everyday Life (2019) {24bit/96kHz, Hi-Res} November 22, 2019. With this tool you can create the bass boost effect without having any knowledge in audio engineering. 8KB Jacket-B. ATTENTION: To process Baidu and unlimited Mega file - you NEED to enter CODE number Ask me for CODEs in comments, if you want to beta-test it…. flac FLAC file, 123 MB A4 - Se Phil Collins - Hits (iTunes Plus AAC M4A) Hits (stylized as Hits), released in 1998 and again in 2008, following the success of "In the Air Tonight" on the Cadbury ad ca. Track list "Café Mocha Please (카페모카 주세요)" - 3:25. [JPN Single] TWICE - One More Time [FLAC / WEB] [2017. zip : 314,27 MB…. 楊千嬅 (Miriam Yeung) - 如果大家都擁有海 (2015) [FLAC 24bit/44,1-48kHz] Posted 1 month ago May 9, 2020. 301 Moved Permanently. Download club dance music MP3 and FLAC, Dance compilation, Daily updates club music, Best mixes and sets, Radio show. Download @ ExtMatrix Pass: rula. Get unlimited access to over 60 million songs in HD and millions of songs in Ultra HD. Find out What are the best resources to download K-pop songs, including K2NBlog, iTunes, Spotify and 5 other top answers suggested and ranked by the Binge. Online Audio Converter is the quickest, simplest way to convert your FLAC files to MP3. 21 다음글 [2019. com [FLAC] K. Her last solo release, 2016’s “Lifted” peaked on the Hot 100. k-Pop Hi-Res Digital Download. Distributes Blue Coast Records, San Francisco Symphony, IsoMike and many other high profile independent labels. com you can download lossless music in popular formats FLAC, APE, ALAC, MP3, M4A. nz links (Plz use it gentle just 1-2 big files per day). Discover the best audio quality. Your browser does not support the video tag. The record charted in Switzerland, Belgium, and France, where it reached a peak position of number 11. Download K-Pop lossless FLAC APE WAV music. 混ぜるな危険 02. Angela Chang - Ang 5. download the best dj mixes from djs all around the world. 이전글 [flac] 가요톱10 골든컵 수상 86곡 모음 20. ALAC Downloads ALAC 176kHz/24bit Download ALAC 192kHz/24bit Download ALAC 44kHz/24bit Download DSD Downloads DSD (Double Rate) 5. Artist have the opportunity to show their creativity to a broader audience, and the public. 1 Audio: LPCM 2.